Торрент-база » Сериалы » Отечественные » Никогда не сдавайся (1-4 серии из 4) (2020) WEBRip от Files-x

Торрент Никогда не сдавайся (1-4 серии из 4) (2020) WEBRip от Files-x

СКАЧАТЬ ТОРРЕНТ (1)
Скачать торрент Никогда не сдавайся (1-4 серии из 4) (2020) WEBRip от Files-x:
Оригинальное наименование: Никогда не сдавайся
Категория: Мелодрама
Произведено: Россия, Украина, Кинокомпания 'Упс'
Режиссер постановщик: Павел Тупик
В главных ролях: Лянка Грыу, Екатерина Гулякова, Алиса Дебабова-Лукшина, Вячеслав Довженко, Андрей Аверков, Максим Боряк, Максим Даньшин, Мирослава Филиппович, Алина Разуменко

Описание: 36-летняя Марина – руководитель крупной компании и невеста обаятельного красавца Ильи. В жизни ей не хватает лишь одного: смелости признаться себе, что всё это не делает её счастливой. Все меняется в один день, когда в офис Марины приходит работать Юля – человек из её прошлого. Её появление заставляет Марину вернуться в город своего детства и разбередить давние раны...

'Релиз'
Автор рипа Nicodem
Релиз от Files-x без рекламы, и 'всплывающих' надписей

'MediaInfo'
General
Complete name: C:01.Никогда не сдавайся.(2020).WEBRip.by.Nicodem.Files-x.avi
Format: AVI
Format/Info: Audio Video Interleave
File size: 593 MiB
Duration: 46mn 1s
Overall bit rate: 1 802 Kbps
Writing application: VirtualDubMod 1.5.10.3 | www.virtualdub-fr.org || (build 2550/release)
Writing library: VirtualDubMod build 2550/release

Video
ID: 0
Format: MPEG-4 Visual
Format profile: Advanced [email protected]
Format settings, BVOP: 1
Format settings, QPel: No
Format settings, GMC: No warppoints
Format settings, Matrix: Custom
Codec ID: XVID
Codec ID/Hint: XviD
Duration: 46mn 1s
Bit rate: 1 600 Kbps
Width: 720 pixels
Height: 400 pixels
Display aspect ratio: 16:9
Frame rate: 25.000 fps
Color space: YUV
Chroma subsampling: 4:2:0
Bit depth: 8 bits
Scan type: Progressive
Compression mode: Lossy
Bits/(Pixel*Frame): 0.222
Stream size: 527 MiB (89%)
Writing library: XviD 73

Audio
ID: 1
Format: AC-3
Format/Info: Audio Coding 3
Mode extension: CM (complete main)
Codec ID: 2000
Duration: 46mn 1s
Bit rate mode: Constant
Bit rate: 192 Kbps
Channel(s): 2 channels
Channel positions: Front: L R
Sampling rate: 48.0 KHz
Bit depth: 16 bits
Compression mode: Lossy
Stream size: 63.2 MiB (11%)
Alignment: Split accross interleaves
Interleave, duration: 40 ms (1.00 video frame)
Interleave, preload duration: 500 ms

Внимание! Раздача ведётся путём добавления новых серий
Раздача ведётся путём добавления новых серий, при каждом добавлении создаётся новый торрент. Чтобы начать докачку новой серии, пользователям необходимо сделать следующее:

- Остановить скачивание.
- Удалить старый торрент у себя из клиента (старые серии удалять не надо).
- Скачать новый торрент и запустить его у себя в клиенте вместо старого, при этом указать клиенту путь в старую папку куда и должно происходить скачивание новых серий.

Ваш клиент при этом должен произвести хеширование (проверку) старой папки (если не производит сам - помогите ему сделать это), и будет докачивать только те серии которых у вас ещё нет. Старые серии при этом не удаляются, а продолжают раздаваться!
Если вы уже удалили старые серии, то предотвратить повторную закачку старых серий можно, отжав галочку в соответствующих местах при запуске нового торрента. По возможности, желательно не удалять старые серии как можно дольше, чтобы релизер не столько продолжал раздавать старые серии, а смог сконцентрироваться на новых.







Видео данные: XviD, ~ 1600 Кбит/с, 720x400, 25 кадр/с
Аудио данные: AC3, 2 ch, 192 Кбит/с
Перевод: Оригинал
Продолжительность: 4 х ~ 00:46:00
Никогда не сдавайся (1-4 серии из 4) (2020) WEBRip от Files-x
2.33 ГБ
Отечественные


Качают: 18 / Раздают: 138
Внимание правообладателям! Мы соблюдаем законы и готовы сотрудничать с Вами. Пишите нам на почту info@torrent-base.org и мы незамедлительно удалим файл, который нарушает Ваши права. В письме должны содержаться копии правоустанавливающих документов! Также мы не храним сами файлы на сервере, у нас только хэш-суммы торрент ссылок, сами файлы мы не знаем кому предналежат и взяли из открытых источников в сети интернет.