Торрент-база » Сериалы » Отечественные » У каждого своя ложь (1-12 серии из 12) (2020) WEBRip от Files-x

Торрент У каждого своя ложь (1-12 серии из 12) (2020) WEBRip от Files-x

СКАЧАТЬ ТОРРЕНТ (1)
Скачать торрент У каждого своя ложь (1-12 серии из 12) (2020) WEBRip от Files-x:
Оригинальное наименование: У каждого своя ложь
Категория: Криминал, мелодрама
Произведено: Украина, Ivory films
Режиссер постановщик: Анатолий Матешко
В главных ролях: Ольга Павловец, Анастасия Чепелюк, Виталий Салий, Дмитрий Пчела, Анастасия Походенко-Матешко, Ирина Калашникова, Сергей Радченко, Игорь Рубашкин, Тимур Ибраимов

Описание: Лиза – талантливый врач-гинеколог. Она помогает испытать радость материнства даже тем женщинам, которые уже отчаялись родить ребенка. А вот сама Лиза из-за врожденной болезни сердца матерью стать не может. Они с супругом смирились с этим и нашли смысл жизни в работе: Лиза строит карьеру, у Алексея дела в бизнесе тоже идут очень хорошо. Но неожиданно все переворачивается с ног на голову – Алексей уезжает в командировку, наутро Лиза узнает, что машину супруга нашли в реке, а его тело не удалось обнаружить...

'Релиз'
Автор рипа Nicodem
Релиз от Files-x без рекламы, и 'всплывающих' надписей

'MediaInfo'
General
Complete name : C:01.У каждого своя ложь.(2020).WEBRip.by.Nicodem.Files-x.avi
Format : AVI
Format/Info : Audio Video Interleave
File size : 602 MiB
Duration : 46mn 41s
Overall bit rate : 1 802 Kbps
Writing application : VirtualDubMod 1.5.10.3 | www.virtualdub-fr.org || (build 2550/release)
Writing library : VirtualDubMod build 2550/release

Video
ID : 0
Format : MPEG-4 Visual
Format profile : Advanced [email protected]
Format settings, BVOP : 1
Format settings, QPel : No
Format settings, GMC : No warppoints
Format settings, Matrix : Custom
Codec ID : XVID
Codec ID/Hint : XviD
Duration : 46mn 41s
Bit rate : 1 600 Kbps
Width : 720 pixels
Height : 400 pixels
Display aspect ratio : 16:9
Frame rate : 25.000 fps
Color space : YUV
Chroma subsampling : 4:2:0
Bit depth : 8 bits
Scan type : Progressive
Compression mode : Lossy
Bits/(Pixel*Frame) : 0.222
Stream size : 534 MiB (89%)
Writing library : XviD 73

Audio
ID : 1
Format : AC-3
Format/Info : Audio Coding 3
Mode extension : CM (complete main)
Codec ID : 2000
Duration : 46mn 41s
Bit rate mode : Constant
Bit rate : 192 Kbps
Channel(s) : 2 channels
Channel positions : Front: L R
Sampling rate : 48.0 KHz
Bit depth : 16 bits
Compression mode : Lossy
Stream size : 64.1 MiB (11%)
Alignment : Split accross interleaves
Interleave, duration : 40 ms (1.00 video frame)
Interleave, preload duration : 500 ms

Внимание! Раздача ведётся путём добавления новых серий
Раздача ведётся путём добавления новых серий, при каждом добавлении создаётся новый торрент. Чтобы начать докачку новой серии, пользователям необходимо сделать следующее:

- Остановить скачивание.
- Удалить старый торрент у себя из клиента (старые серии удалять не надо).
- Скачать новый торрент и запустить его у себя в клиенте вместо старого, при этом указать клиенту путь в старую папку куда и должно происходить скачивание новых серий.

Ваш клиент при этом должен произвести хеширование (проверку) старой папки (если не производит сам - помогите ему сделать это), и будет докачивать только те серии которых у вас ещё нет. Старые серии при этом не удаляются, а продолжают раздаваться!
Если вы уже удалили старые серии, то предотвратить повторную закачку старых серий можно, отжав галочку в соответствующих местах при запуске нового торрента. По возможности, желательно не удалять старые серии как можно дольше, чтобы релизер не столько продолжал раздавать старые серии, а смог сконцентрироваться на новых.







Видео данные: XviD, ~ 1600 Кбит/с, 720x400, 25 кадр/с
Аудио данные: AC3, 2 ch, 192 Кбит/с
Перевод: Оригинал
Продолжительность: 12 x ~ 00:46:50
У каждого своя ложь (1-12 серии из 12) (2020) WEBRip от Files-x
7.01 ГБ
Отечественные


Качают: 14 / Раздают: 143
Внимание правообладателям! Мы соблюдаем законы и готовы сотрудничать с Вами. Пишите нам на почту info@torrent-base.org и мы незамедлительно удалим файл, который нарушает Ваши права. В письме должны содержаться копии правоустанавливающих документов! Также мы не храним сами файлы на сервере, у нас только хэш-суммы торрент ссылок, сами файлы мы не знаем кому предналежат и взяли из открытых источников в сети интернет.