Торрент-база » Сериалы » Отечественные » Чужой ребенок (1-4 серии из 4) (2019) WEB-DLRip от Files-x

Торрент Чужой ребенок (1-4 серии из 4) (2019) WEB-DLRip от Files-x

СКАЧАТЬ ТОРРЕНТ (0)
Скачать торрент Чужой ребенок (1-4 серии из 4) (2019) WEB-DLRip от Files-x:
Оригинальное наименование: Чужой ребенок
Категория: Мелодрама
Произведено: Россия, Производство ООО Телекомпания '22' по заказу АО 'Новый канал'
Режиссер постановщик: Игорь Кечаев
В главных ролях: Мария Берсенева, Владислав Резник, Ёла Санько, Анна Лутцева, Денис Макаренко, Евгений Овчинников, Станислав Сальников, Наталья Иванцова, Анна Карышева, Игорь Кечаев, Марина Ковалева (III), Елена Бередина

Описание: Волю судеб успешная актриса Надежда становится матерью чужому ребенку. Ради этого она оставляет карьеру и устраивается вести кружок творчества в захолустный ДК. Постепенно Надежда начинает понимать, что не справляется с воспитанием сына – у него взрывной характер и упрямства хоть отбавляй..

'Релиз'
Автор рипа Nicodem
Релиз от Files-x без рекламы, логотипа канала и 'всплывающих' надписей

'MediaInfo'
General
Complete name: C:01.Чужой ребёнок.(2019).WEB-DLRip.by.Nicodem.Files-x.avi
Format: AVI
Format/Info: Audio Video Interleave
File size: 612 MiB
Duration: 46mn 55s
Overall bit rate: 1 823 Kbps
Writing application: VirtualDubMod 1.5.10.3 | www.virtualdub-fr.org || (build 2550/release)
Writing library: VirtualDubMod build 2550/release

Video
ID: 0
Format: MPEG-4 Visual
Format profile: Advanced [email protected]
Format settings, BVOP: 1
Format settings, QPel: No
Format settings, GMC: No warppoints
Format settings, Matrix: Custom
Codec ID: XVID
Codec ID/Hint: XviD
Duration: 46mn 55s
Bit rate: 1 621 Kbps
Width: 720 pixels
Height: 400 pixels
Display aspect ratio: 16:9
Frame rate: 25.000 fps
Color space: YUV
Chroma subsampling: 4:2:0
Bit depth: 8 bits
Scan type: Progressive
Compression mode: Lossy
Bits/(Pixel*Frame): 0.225
Stream size: 544 MiB (89%)
Writing library: XviD 73

Audio
ID: 1
Format: AC-3
Format/Info: Audio Coding 3
Mode extension: CM (complete main)
Codec ID: 2000
Duration: 46mn 55s
Bit rate mode: Constant
Bit rate: 192 Kbps
Channel(s): 2 channels
Channel positions: Front: L R
Sampling rate: 48.0 KHz
Bit depth: 16 bits
Compression mode: Lossy
Stream size: 64.4 MiB (11%)
Alignment: Split accross interleaves
Interleave, duration: 40 ms (1.00 video frame)
Interleave, preload duration: 500 ms

Внимание! Раздача ведётся путём добавления новых серий
Раздача ведётся путём добавления новых серий, при каждом добавлении создаётся новый торрент. Чтобы начать докачку новой серии, пользователям необходимо сделать следующее:

- Остановить скачивание.
- Удалить старый торрент у себя из клиента (старые серии удалять не надо).
- Скачать новый торрент и запустить его у себя в клиенте вместо старого, при этом указать клиенту путь в старую папку куда и должно происходить скачивание новых серий.

Ваш клиент при этом должен произвести хеширование (проверку) старой папки (если не производит сам - помогите ему сделать это), и будет докачивать только те серии которых у вас ещё нет. Старые серии при этом не удаляются, а продолжают раздаваться!
Если вы уже удалили старые серии, то предотвратить повторную закачку старых серий можно, отжав галочку в соответствующих местах при запуске нового торрента. По возможности, желательно не удалять старые серии как можно дольше, чтобы релизер не столько продолжал раздавать старые серии, а смог сконцентрироваться на новых.







Видео данные: XviD, ~ 1621 Кбит/с, 720x400, 25 кадр/с
Аудио данные: AC3, 2 ch, 192 Кбит/с
Перевод: Оригинал
Продолжительность: 4 х ~ 00:46:55
Чужой ребенок (1-4 серии из 4) (2019) WEB-DLRip от Files-x
2.47 ГБ
Отечественные


Качают: 3 / Раздают: 41
Внимание правообладателям! Мы соблюдаем законы и готовы сотрудничать с Вами. Пишите нам на почту info@torrent-base.org и мы незамедлительно удалим файл, который нарушает Ваши права. В письме должны содержаться копии правоустанавливающих документов! Также мы не храним сами файлы на сервере, у нас только хэш-суммы торрент ссылок, сами файлы мы не знаем кому предналежат и взяли из открытых источников в сети интернет.