Торрент-база » Сериалы » Отечественные » Следуя за сердцем (1-4 серии из 4) (2020) WEBRip от Files-x

Торрент Следуя за сердцем (1-4 серии из 4) (2020) WEBRip от Files-x

СКАЧАТЬ ТОРРЕНТ (0)
Скачать торрент Следуя за сердцем (1-4 серии из 4) (2020) WEBRip от Files-x:
Оригинальное наименование: Следуя за сердцем
Категория: Мелодрама
Произведено: Украина, 'Арт-Территория'
Режиссер постановщик: Саша Кириенко
В главных ролях: Дана Абызова, Кирилл Жандаров, Мира Фаренюк, Евфросиния Мельник, Олеся Гаевая, Алексей Нагрудный, Ирина Новак, Евгений Шекера, Евгений Григорьев (IV), Роман Ясиновский, Сергей Калантай, Михаил Кукуюк, Игорь Верста, Алексей Агеев (II)

Описание: Света – открытая, привлекательная, но одинокая девушка, которая сама воспитывает дочь Дашу. Однажды утром Света спешит на собеседование, но едва не попадает под колеса грузовика. Ее чудом спасает вдовец Олег, воспитывающий семилетнюю дочь Леру. Мужчина оказывается владельцем той самой крупной строительной компании, куда Света спешит на собеседование. Между молодыми людьми появляется симпатия, однако Олег собирается жениться на другой. Впрочем, мужчина даже не подозревает, какой путь предательств его ожидает.

'Релиз'
Автор рипа Nicodem
Релиз от Files-x без рекламы, и 'всплывающих' надписей

'MediaInfo'
General
Complete name : C:01.Следуя за сердцем.(2020).WEBRip.by.Nicodem.Files-x.avi
Format : AVI
Format/Info : Audio Video Interleave
File size : 558 MiB
Duration : 43mn 16s
Overall bit rate : 1 801 Kbps
Writing application : VirtualDubMod 1.5.10.3 | www.virtualdub-fr.org || (build 2550/release)
Writing library : VirtualDubMod build 2550/release

Video
ID : 0
Format : MPEG-4 Visual
Format profile : Advanced [email protected]
Format settings, BVOP : 1
Format settings, QPel : No
Format settings, GMC : No warppoints
Format settings, Matrix : Custom
Codec ID : XVID
Codec ID/Hint : XviD
Duration : 43mn 16s
Bit rate : 1 600 Kbps
Width : 720 pixels
Height : 400 pixels
Display aspect ratio : 16:9
Frame rate : 25.000 fps
Color space : YUV
Chroma subsampling : 4:2:0
Bit depth : 8 bits
Scan type : Progressive
Compression mode : Lossy
Bits/(Pixel*Frame) : 0.222
Stream size : 495 MiB (89%)
Writing library : XviD 73

Audio
ID : 1
Format : AC-3
Format/Info : Audio Coding 3
Mode extension : CM (complete main)
Codec ID : 2000
Duration : 43mn 16s
Bit rate mode : Constant
Bit rate : 192 Kbps
Channel(s) : 2 channels
Channel positions : Front: L R
Sampling rate : 48.0 KHz
Bit depth : 16 bits
Compression mode : Lossy
Stream size : 59.4 MiB (11%)
Alignment : Split accross interleaves
Interleave, duration : 40 ms (1.00 video frame)
Interleave, preload duration : 500 ms

Внимание! Раздача ведётся путём добавления новых серий
Раздача ведётся путём добавления новых серий, при каждом добавлении создаётся новый торрент. Чтобы начать докачку новой серии, пользователям необходимо сделать следующее:

- Остановить скачивание.
- Удалить старый торрент у себя из клиента (старые серии удалять не надо).
- Скачать новый торрент и запустить его у себя в клиенте вместо старого, при этом указать клиенту путь в старую папку куда и должно происходить скачивание новых серий.

Ваш клиент при этом должен произвести хеширование (проверку) старой папки (если не производит сам - помогите ему сделать это), и будет докачивать только те серии которых у вас ещё нет. Старые серии при этом не удаляются, а продолжают раздаваться!
Если вы уже удалили старые серии, то предотвратить повторную закачку старых серий можно, отжав галочку в соответствующих местах при запуске нового торрента. По возможности, желательно не удалять старые серии как можно дольше, чтобы релизер не столько продолжал раздавать старые серии, а смог сконцентрироваться на новых.







Видео данные: XviD, ~ 1600 Кбит/с, 720x400, 25 кадр/с
Аудио данные: AC3, 2 ch, 192 Кбит/с
Перевод: Оригинал
Продолжительность: 4 x ~ 00:43:46
Следуя за сердцем (1-4 серии из 4) (2020) WEBRip от Files-x
2.23 ГБ
Отечественные


Качают: 1 / Раздают: 53
Внимание правообладателям! Мы соблюдаем законы и готовы сотрудничать с Вами. Пишите нам на почту info@torrent-base.org и мы незамедлительно удалим файл, который нарушает Ваши права. В письме должны содержаться копии правоустанавливающих документов! Также мы не храним сами файлы на сервере, у нас только хэш-суммы торрент ссылок, сами файлы мы не знаем кому предналежат и взяли из открытых источников в сети интернет.