Торрент-база » Фильмы » Ужасы‎ » Поцелуй мамочку на ночь / Темное прикосновение (2013) HDRip 720p | iTunes, DeadSno & den904, Хихикающий доктор

Торрент Поцелуй мамочку на ночь / Темное прикосновение (2013) HDRip 720p | iTunes, DeadSno & den904, Хихикающий доктор

СКАЧАТЬ ТОРРЕНТ (0)
Скачать торрент Поцелуй мамочку на ночь / Темное прикосновение (2013) HDRip 720p | iTunes, DeadSno & den904, Хихикающий доктор:
Название: Поцелуй мамочку на ночь / Темное прикосновение
Оригинальное название: Dark Touch
Год выхода: 2013
Жанр: Ужасы
Выпущено: Франция, Ирландия, Швеция / Element Pictures, Eurimages, Ex Nihilo, Film i Vst, Filmgate Films, Irish Film Board
Режиссер: Марина де Ван
В ролях: Мисси Китинг, Марселла Планкетт, Падрейк Делани, Клер Баррет, Роберт Доннелли, Ричард Дормер, Шарлотта Фливхолм, Элла Хэйес, Марк Хубермэн, Кэти Кирби

Описание:
Слоган: «Её месть будет безжалостна»
Однажды вечером в доме на окраине начинают происходить невероятно ужасные и таинственные вещи, в ходе чего погибают его обитатели, родители и младший брат 11-летней девочки Ниам. Полиция считает, что это дело рук убийц-вандалов, и не придаёт значения словам Ниам, когда та рассказывает о беспощадной ярости дома.
Девочку забирают к себе друзья её родителей, которые, окружив Ниам любовью и вниманием, стараются облегчить её боль. Но Ниам не оставляют в покое. Она постоянно замечает признаки подкрадывающейся опасности, окружающие её предметы пропитаны жестокой яростью, которая вскоре вновь прорывается и начинает жестокую расправу, в поисках всё новых жертв…

MediaInfo: Общее
Уникальный идентификатор : 112703695450066846749547093382088171456 (0x54C9F1336E902C210DDD38CBD0A91FC0)
Полное имя : F:РЕЛИЗЫ ФИЛЬМОВ. ФИЛЬМЫТемное прикосновение Dark Touch (2013)Dark Touch (2013).mkv
Формат : Matroska
Версия формата : Version 4
Размер файла : 3,68 Гбайт
Продолжительность : 1 ч. 31 м.
Общий поток : 5770 Кбит/сек
Программа кодирования : XviD4PSP 7.0.324 DAILY
Библиотека кодирования : Lavf57.41.100
Авторское право : «CVATVT»
Обложка : Yes
Attachments : cover.jpg
ENCODING_INFO : MATROSKA,WEBM > MKV / H264 > X264 ABR 4000kbps Произвольный / AC3 > AC3 CBR 384kbps / AC3 > AC3 CBR 256kbps / AC3 > AC3 CBR 256kbps / DTS-HD MA > AC3 CBR 448kbps / DTS-HD MA > AC3 CBR 448kbps

Видео
Идентификатор : 1
Формат : AVC
Формат/Информация : Advanced Video Codec
Профиль формата : [email protected]
Настройки формата : 10 Ref Frames
Параметр CABAC формата : Нет
Параметр RefFrames формата : 10 кадров
Идентификатор кодека : V_MPEG4/ISO/AVC
Продолжительность : 1 ч. 31 м.
Битрейт : 4000 Кбит/сек
Ширина : 1280 пикселей
Высота : 536 пикселей
Соотношение сторон : 2,40:1
Режим частоты кадров : Переменный
Частота кадров в оригинале : 24,000 кадра/сек
Цветовое пространство : YUV
Субдискретизация насыщенности : 4:2:0
Битовая глубина : 8 бит
Тип развёртки : Прогрессивная
Бит/(Пиксели*Кадры) : 0.243
Размер потока : 2,46 Гбайт (67%)
Заголовок : France, Ireland, Sweden (Element Pictures, Eurimages, Ex Nihilo, Film i Vst, Filmgate Films, Irish Film Board)
Библиотека кодирования : x264 core 148 r2721M 72d53ab
Настройки программы : cabac=0 / ref=11 / deblock=1:-3:-3 / analyse=0x3:0x133 / me=umh / subme=11 / psy=1 / psy_rd=1.05:0.10 / mixed_ref=1 / me_range=32 / chroma_me=1 / trellis=2 / 8x8dct=1 / cqm=0 / deadzone=21,11 / fast_pskip=0 / chroma_qp_offset=-3 / threads=12 / lookahead_threads=1 / sliced_threads=0 / nr=0 / decimate=1 / interlaced=0 / bluray_compat=0 / constrained_intra=0 / bframes=11 / b_pyramid=1 / b_adapt=1 / b_bias=10 / direct=1 / weightb=1 / open_gop=0 / weightp=1 / keyint=240 / keyint_min=24 / scenecut=40 / intra_refresh=0 / rc=abr / mbtree=0 / bitrate=4000 / ratetol=1.0 / qcomp=0.70 / qpmin=3 / qpmax=69 / qpstep=4 / ip_ratio=1.40 / pb_ratio=1.30 / aq=2:1.00
Язык : English
Default : Да
Forced : Нет
Цветовой диапазон : Limited
Основные цвета : BT.709
Характеристики трансфера : BT.709
Коэффициенты матрицы : BT.709

Аудио #1
Идентификатор : 2
Формат : AC-3
Формат/Информация : Audio Coding 3
Коммерческое название : Dolby Digital
Идентификатор кодека : A_AC3
Продолжительность : 1 ч. 31 м.
Вид битрейта : Постоянный
Битрейт : 384 Кбит/сек
Каналы : 6 каналов
ChannelLayout : L R C LFE Ls Rs
Частота : 48,0 КГц
Частота кадров : 31,250 кадров/сек (1536 SPF)
Битовая глубина : 32 бит
Метод сжатия : С потерями
Задержка видео : 1 мс.
Размер потока : 251 Мбайт (7%)
Заголовок : MVO (iTunes)
Язык : Russian
ServiceKind/String : Complete Main
Default : Да
Forced : Нет

Аудио #2
Идентификатор : 3
Формат : AC-3
Формат/Информация : Audio Coding 3
Коммерческое название : Dolby Digital
Идентификатор кодека : A_AC3
Продолжительность : 1 ч. 31 м.
Вид битрейта : Постоянный
Битрейт : 256 Кбит/сек
Каналы : 2 канала
ChannelLayout : L R
Частота : 48,0 КГц
Частота кадров : 31,250 кадров/сек (1536 SPF)
Битовая глубина : 32 бит
Метод сжатия : С потерями
Задержка видео : 1 мс.
Размер потока : 167 Мбайт (4%)
Заголовок : DVO (DeadSno & den904)
Язык : Russian
ServiceKind/String : Complete Main
Default : Нет
Forced : Нет

Аудио #3
Идентификатор : 4
Формат : AC-3
Формат/Информация : Audio Coding 3
Коммерческое название : Dolby Digital
Идентификатор кодека : A_AC3
Продолжительность : 1 ч. 31 м.
Вид битрейта : Постоянный
Битрейт : 256 Кбит/сек
Каналы : 2 канала
ChannelLayout : L R
Частота : 44,1 КГц
Частота кадров : 28,711 кадров/сек (1536 SPF)
Битовая глубина : 32 бит
Метод сжатия : С потерями
Размер потока : 167 Мбайт (4%)
Заголовок : VO (Khikhikayushchiy doktor)
Язык : Russian
ServiceKind/String : Complete Main
Default : Нет
Forced : Нет

Аудио #4
Идентификатор : 5
Формат : AC-3
Формат/Информация : Audio Coding 3
Коммерческое название : Dolby Digital
Идентификатор кодека : A_AC3
Продолжительность : 1 ч. 31 м.
Вид битрейта : Постоянный
Битрейт : 448 Кбит/сек
Каналы : 6 каналов
ChannelLayout : L R C LFE Ls Rs
Частота : 48,0 КГц
Частота кадров : 31,250 кадров/сек (1536 SPF)
Битовая глубина : 16 бит
Метод сжатия : С потерями
Задержка видео : 1 мс.
Размер потока : 292 Мбайт (8%)
Заголовок : Original
Язык : English
ServiceKind/String : Complete Main
Default : Нет
Forced : Нет

Аудио #5
Идентификатор : 6
Формат : AC-3
Формат/Информация : Audio Coding 3
Коммерческое название : Dolby Digital
Идентификатор кодека : A_AC3
Продолжительность : 1 ч. 31 м.
Вид битрейта : Постоянный
Битрейт : 448 Кбит/сек
Каналы : 6 каналов
ChannelLayout : L R C LFE Ls Rs
Частота : 48,0 КГц
Частота кадров : 31,250 кадров/сек (1536 SPF)
Битовая глубина : 16 бит
Метод сжатия : С потерями
Задержка видео : 1 мс.
Размер потока : 292 Мбайт (8%)
ServiceKind/String : Complete Main
Default : Нет
Forced : Нет

Текст #1
Идентификатор : 7
Формат : UTF-8
Идентификатор кодека : S_TEXT/UTF8
Идентификатор кодека/Информация : UTF-8 Plain Text
Продолжительность : 1 ч. 26 м.
Заголовок : (Khikhikayushchiy doktor)
Язык : Russian
Default : Да
Forced : Нет

Текст #2
Идентификатор : 8
Формат : UTF-8
Идентификатор кодека : S_TEXT/UTF8
Идентификатор кодека/Информация : UTF-8 Plain Text
Продолжительность : 1 ч. 26 м.
Язык : Ukrainian
Default : Нет
Forced : Нет

Текст #3
Идентификатор : 9
Формат : UTF-8
Идентификатор кодека : S_TEXT/UTF8
Идентификатор кодека/Информация : UTF-8 Plain Text
Продолжительность : 1 ч. 27 м.
Язык : English
Default : Нет
Forced : Нет

Меню
00:00:00.000 : :Chapter 1
00:07:35.291 : :Chapter 2
00:11:18.500 : :Chapter 3
00:19:35.458 : :Chapter 4
00:29:05.666 : :Chapter 5
00:36:51.416 : :Chapter 6
00:42:39.916 : :Chapter 7
00:50:22.291 : :Chapter 8
00:56:43.291 : :Chapter 9
01:05:06.416 : :Chapter 10
01:13:05.541 : :Chapter 11
01:22:42.791 : :Chapter 12
01:31:16.625 : :Chapter 13
Скриншоты



[spoiler=Скриншоты][/spoiler]

Качество: HDRip 720p
Видео: MPEG-4 AVC/H.264, 4000 Кбит/сек, 1280x536
Аудио Pусский (iTunes): AC3, 6 ch, 384 Кбит/сек, Pусский (DeadSno & den904): AC3, 2 ch, 256 Кбит/сек, Pусский (Хихикающий доктор): AC3, 2 ch, 256 Кбит/сек, Aнглийский: AC3, 6 ch, 448 Кбит/сек, Hемецкий: AC3, 6 ch, 448 Кбит/сек
Продолжительность: 01:31:18
Перевод: Профессиональный (многоголосый закадровый) [iTunes], Любительский (двухголосый закадровый) [DeadSno & den904], Любительский (одноголосый закадровый) [Хихикающий доктор]
Субтитры: русские, украинские, английские [вшитые отключаемые]
Дополнительно: Сохранены оригинальные главы (чаптеры)
Поцелуй мамочку на ночь / Темное прикосновение (2013) HDRip 720p | iTunes, DeadSno & den904, Хихикающий доктор
3.68 ГБ
Ужасы‎


Качают: 0 / Раздают: 0
Внимание правообладателям! Мы соблюдаем законы и готовы сотрудничать с Вами. Пишите нам на почту info@torrent-base.org и мы незамедлительно удалим файл, который нарушает Ваши права. В письме должны содержаться копии правоустанавливающих документов! Также мы не храним сами файлы на сервере, у нас только хэш-суммы торрент ссылок, сами файлы мы не знаем кому предналежат и взяли из открытых источников в сети интернет.