Торрент-база » Фильмы » Семейные‎ » Создатель игр (2014) WEB-DLRip 720p

Торрент Создатель игр (2014) WEB-DLRip 720p

СКАЧАТЬ ТОРРЕНТ (0)
Скачать торрент Создатель игр (2014) WEB-DLRip 720p:
Название: Создатель игр
Оригинальное название: The Games Maker
Год выхода: 2014
Жанр: Приключения, семейный
Выпущено: Аргентина, Канада, Италия / 7Glab Entertainment, Benteveo Producciones, DAP Italy, Orinoco Films
Режиссер: Хуан Пабло Бускарини
В ролях: Джозеф Файнс, Томас Кэвэна, Меган Чарпентье, Валентина Лодовини, Роберт Верлак, Алехандро Авада, Эдвард Эснер, Дэвид Мазоуз, Алан Ферраро, Рэймонд Эдвард Ли

Описание:
Слоган: «Приключение за гранью вашего воображения»
Новое увлечение юного Ивана Драго, настольные игры, переносит его в фантастический параллельный мир, где он сталкивается с гением создания игр по имени Мородиан, который давно желает уничтожить город Зил, основанный дедом Ивана. Чтобы спасти семью и победить Мородиана, Иван должен узнать, что значит быть настоящим создателем игр.

MediaInfo: Общее
Уникальный идентификатор : 277964322060132229759202121108044132364 (0xD11DFB2B83133DC868F51C230130300C)
Полное имя : F:РЕЛИЗЫ ФИЛЬМОВ. ФИЛЬМЫСоздатель игр The Games Maker (2014)The Games Maker (2014).mkv
Формат : Matroska
Версия формата : Version 4
Размер файла : 3,72 Гбайт
Продолжительность : 1 ч. 52 м.
Общий поток : 4 751 Кбит/сек
Программа кодирования : XviD4PSP 7.0.324 DAILY
Библиотека кодирования : Lavf57.41.100
Авторское право : «CVATVT»
Обложка : Yes
Attachments : cover.jpg
ENCODING_INFO : MATROSKA,WEBM > MKV / H264 > X264 ABR 4000kbps Произвольный / AC3 > AC3 CBR 256kbps / EAC3 > AC3 CBR 448kbps

Видео
Идентификатор : 1
Формат : AVC
Формат/Информация : Advanced Video Codec
Профиль формата : [email protected]
Настройки формата : 10 Ref Frames
Параметр CABAC формата : Нет
Параметр RefFrames формата : 10 кадров
Идентификатор кодека : V_MPEG4/ISO/AVC
Продолжительность : 1 ч. 52 м.
Битрейт : 4 000 Кбит/сек
Ширина : 1 280 пикселей
Высота : 528 пикселей
Соотношение сторон : 2,40:1
Соотношение сторон в оригинале : 2,40:1
Режим частоты кадров : Переменный
Частота кадров в оригинале : 23,976 кадра/сек
Цветовое пространство : YUV
Субдискретизация насыщенности : 4:2:0
Битовая глубина : 8 бит
Тип развёртки : Прогрессивная
Бит/(Пиксели*Кадры) : 0.247
Размер потока : 3,10 Гбайт (83%)
Заголовок : Argentina, Canada, Italy (7Glab Entertainment, Benteveo Producciones, DAP Italy, Orinoco Films)
Библиотека кодирования : x264 core 148 r2721M 72d53ab
Настройки программы : cabac=0 / ref=11 / deblock=1:-3:-3 / analyse=0x3:0x133 / me=umh / subme=11 / psy=1 / psy_rd=1.05:0.10 / mixed_ref=1 / me_range=32 / chroma_me=1 / trellis=2 / 8x8dct=1 / cqm=0 / deadzone=21,11 / fast_pskip=0 / chroma_qp_offset=-3 / threads=12 / lookahead_threads=1 / sliced_threads=0 / nr=0 / decimate=1 / interlaced=0 / bluray_compat=0 / constrained_intra=0 / bframes=11 / b_pyramid=1 / b_adapt=1 / b_bias=10 / direct=1 / weightb=1 / open_gop=0 / weightp=1 / keyint=230 / keyint_min=23 / scenecut=40 / intra_refresh=0 / rc=abr / mbtree=0 / bitrate=4000 / ratetol=1.0 / qcomp=0.70 / qpmin=3 / qpmax=69 / qpstep=4 / ip_ratio=1.40 / pb_ratio=1.30 / aq=2:1.00
Язык : English
Default : Да
Forced : Нет
Цветовой диапазон : Limited
Основные цвета : BT.709
Характеристики трансфера : BT.709
Коэффициенты матрицы : BT.709

Аудио #1
Идентификатор : 2
Формат : AC-3
Формат/Информация : Audio Coding 3
Коммерческое название : Dolby Digital
Идентификатор кодека : A_AC3
Продолжительность : 1 ч. 52 м.
Вид битрейта : Постоянный
Битрейт : 256 Кбит/сек
Каналы : 2 канала
Channel layout : L R
Частота : 48,0 КГц
Частота кадров : 31,250 кадров/сек (1536 SPF)
Битовая глубина : 32 бит
Метод сжатия : С потерями
Размер потока : 205 Мбайт (5%)
Заголовок : VO (Vyacheslav Proshin)
Язык : Russian
Service kind : Complete Main
Default : Да
Forced : Нет

Аудио #2
Идентификатор : 3
Формат : AC-3
Формат/Информация : Audio Coding 3
Коммерческое название : Dolby Digital
Идентификатор кодека : A_AC3
Продолжительность : 1 ч. 52 м.
Вид битрейта : Постоянный
Битрейт : 448 Кбит/сек
Каналы : 6 каналов
Channel layout : L R C LFE Ls Rs
Частота : 48,0 КГц
Частота кадров : 31,250 кадров/сек (1536 SPF)
Битовая глубина : 32 бит
Метод сжатия : С потерями
Размер потока : 359 Мбайт (9%)
Заголовок : Original
Язык : English
Service kind : Complete Main
Default : Нет
Forced : Нет

Текст #1
Идентификатор : 4
Формат : UTF-8
Идентификатор кодека : S_TEXT/UTF8
Идентификатор кодека/Информация : UTF-8 Plain Text
Продолжительность : 1 ч. 47 м.
Язык : Russian
Default : Да
Forced : Нет

Текст #2
Идентификатор : 5
Формат : UTF-8
Идентификатор кодека : S_TEXT/UTF8
Идентификатор кодека/Информация : UTF-8 Plain Text
Продолжительность : 1 ч. 47 м.
Язык : English
Default : Нет
Forced : Нет

Текст #3
Идентификатор : 6
Формат : UTF-8
Идентификатор кодека : S_TEXT/UTF8
Идентификатор кодека/Информация : UTF-8 Plain Text
Продолжительность : 1 ч. 47 м.
Заголовок : SDH
Язык : English
Default : Нет
Forced : Нет
Скриншоты



[spoiler=Скриншоты][/spoiler]

Качество: WEB-DLRip 720p
Видео: MPEG-4 AVC/H.264, 4 000 Кбит/сек, 1280x528
Аудио: Pусский: AC3, 2 ch, 256 Кбит/сек, Aнглийский: AC3, 6 ch, 448 Кбит/сек
Продолжительность: 01:52:06
Перевод: Любительский (одноголосый закадровый) [Вячеслав Прошин]
Субтитры: русские, английские [вшитые отключаемые]
Создатель игр (2014) WEB-DLRip 720p
3.72 ГБ
Семейные‎ / Приключения


Качают: 0 / Раздают: 0
Внимание правообладателям! Мы соблюдаем законы и готовы сотрудничать с Вами. Пишите нам на почту info@torrent-base.org и мы незамедлительно удалим файл, который нарушает Ваши права. В письме должны содержаться копии правоустанавливающих документов! Также мы не храним сами файлы на сервере, у нас только хэш-суммы торрент ссылок, сами файлы мы не знаем кому предналежат и взяли из открытых источников в сети интернет.