Торрент-база » Фильмы » Комедии‎ » Очень женские истории (2020) WEB-DL (720p) | iTunes

Торрент Очень женские истории (2020) WEB-DL (720p) | iTunes

СКАЧАТЬ ТОРРЕНТ (0)
Скачать торрент Очень женские истории (2020) WEB-DL (720p) | iTunes:
Название: Очень женские истории
Год выхода: 2020
Жанр: Комедия, мелодрама
Выпущено: Россия / Vita Aktiva
Режиссер: Наталья Меркулова, Лика Ятковская, Анна Саруханова, Оксана Михеева, Антон Бильжо
В ролях: Анна Михалкова, Виктория Исакова, Виктория Толстоганова, Лукерья Ильяшенко, Анна Слю, Любовь Толкалина, Полина Виторган, Кристина Бабушкина, Диана Дэлль, Анфиса Черных, Виталий Гогунский

Описание: Киноальманах из пяти короткометражных фильмов, снятых четырьмя женщинами и одним мужчиной. В нем рассказываются истории о десяти девушках, у каждой из которой – своя судьба. Чего хотят женщины? Одни ответят, что счастья в браке и детей. Другие – денег и успешной карьеры. Большинство расскажут про любовь. А кто-то пошутит про волшебный пульт, который даст возможность одним кликом изменить возлюбленного к лучшему. Десять разных женщин, которых объединяет одно: жажда жить по-настоящему.

MediaInfo: Общее
Уникальный идентификатор : 56794594334784515210437512190991038993 (0x2ABA3DB193DBC548040AE8B374D47A11)
Полное имя : F:РЕЛИЗЫ ФИЛЬМОВ. ФИЛЬМЫ СНГОчень женские истории 2020Very Female Stories (2020).mkv
Формат : Matroska
Версия формата : Version 4
Размер файла : 3,46 Гбайт
Продолжительность : 1 ч. 32 м.
Общий поток : 5327 Кбит/сек
Дата кодирования : UTC 2020-04-05 07:51:46
Программа кодирования : mkvmerge v44.0.0 ('Domino') 64-bit
Библиотека кодирования : libebml v1.3.10 + libmatroska v1.5.2

Видео
Идентификатор : 1
Формат : AVC
Формат/Информация : Advanced Video Codec
Профиль формата : [email protected]
Настройки формата : CABAC / 1 Ref Frames
Параметр CABAC формата : Да
Параметр RefFrames формата : 1 кадр
Параметр GOP формата : M=1, N=30
Идентификатор кодека : V_MPEG4/ISO/AVC
Продолжительность : 1 ч. 32 м.
Битрейт : 4941 Кбит/сек
Ширина : 1280 пикселей
Высота : 720 пикселей
Соотношение сторон : 16:9
Режим частоты кадров : Постоянный
Частота кадров : 24,000 кадра/сек
Цветовое пространство : YUV
Субдискретизация насыщенности : 4:2:0
Битовая глубина : 8 бит
Тип развёртки : Прогрессивная
Бит/(Пиксели*Кадры) : 0.223
Размер потока : 3,20 Гбайт (93%)
Заголовок : Russia (Vita Aktiva)
Язык : Russian
Default : Да
Forced : Нет
Цветовой диапазон : Limited
Основные цвета : BT.709
Характеристики трансфера : BT.709
Коэффициенты матрицы : BT.709

Аудио
Идентификатор : 2
Формат : AC-3
Формат/Информация : Audio Coding 3
Коммерческое название : Dolby Digital
Идентификатор кодека : A_AC3
Продолжительность : 1 ч. 32 м.
Вид битрейта : Постоянный
Битрейт : 384 Кбит/сек
Каналы : 6 каналов
ChannelLayout : L R C LFE Ls Rs
Частота : 48,0 КГц
Частота кадров : 31,250 кадров/сек (1536 SPF)
Метод сжатия : С потерями
Размер потока : 255 Мбайт (7%)
Заголовок : Original (iTunes)
Язык : Russian
ServiceKind/String : Complete Main
Default : Да
Forced : Нет
Скриншоты



[spoiler=Скриншоты][/spoiler]

Качество: WEB-DL (720p)
Видео: MPEG-4 AVC/H.264, 4941 Кбит/сек, 1280x720
Аудио: AC3, 6 ch, 384 Кбит/сек
Продолжительность: 01:32:47
Перевод: не требуется [iTunes]
Очень женские истории (2020) WEB-DL (720p) | iTunes
3.46 ГБ
Комедии‎ / Мелодрамы‎


Качают: 3 / Раздают: 31
Внимание правообладателям! Мы соблюдаем законы и готовы сотрудничать с Вами. Пишите нам на почту info@torrent-base.org и мы незамедлительно удалим файл, который нарушает Ваши права. В письме должны содержаться копии правоустанавливающих документов! Также мы не храним сами файлы на сервере, у нас только хэш-суммы торрент ссылок, сами файлы мы не знаем кому предналежат и взяли из открытых источников в сети интернет.