Торрент-база » Фильмы » Комедии‎ » Парни из трейлер парка: Обратный отсчет до дня алкашей (2009) WEB-DL 720p | kyberpunk

Торрент Парни из трейлер парка: Обратный отсчет до дня алкашей (2009) WEB-DL 720p | kyberpunk

СКАЧАТЬ ТОРРЕНТ (1)
Скачать торрент Парни из трейлер парка: Обратный отсчет до дня алкашей (2009) WEB-DL 720p | kyberpunk:
Название: Парни из трейлер парка: Обратный отсчет до дня алкашей
Оригинальное название: Trailer Park Boys:Countdown to Liquor Day
Год выхода: 2009
Жанр: Комедия, криминал
Выпущено: Канада / Eggplant Picture & Sound, Topsail Entertainment, Trailer Park Productions
Режиссер: Майк Клаттенбёрг
В ролях: Робб Уэллсб, Джон Пол Тремблэ, Майк Смит, John Dunsworth, Джонатан Торренс, Патрик Роач, Lucy Decoutere, Sarah Dunsworth, Бэрри Данн, Тайрон Парсонс

Описание:
Слоган: «Единственное различие между Вами и ими – это пара крепких напитков coupla»
Рикки, Джулиан и Бабблс возвращаются из тюрьмы и обнаруживают, что их любимый парк совсем запущен, а под боком появился какой-то совершенно новый Трейлер-Парк. С помощью быстрых схем и ограблений они пытаются разбогатеть, в то время как вновь ушедший в запой участковый Лейхи угрожает сорвать все их планы.

MediaInfo: Общее
Уникальный идентификатор : 94168626800569871530538190239903100973 (0x46D837C2E6ACD8525CACAD154F69B02D)
Полное имя : F:РЕЛИЗЫ ФИЛЬМОВ. ФИЛЬМЫПарни из Трейлер-Парка Обратный отсчет до запоя Trailer Park Boys Countdown to Liquor Day 2009Trailer Park BoysCountdown to Liquor Day (2009).mkv
Формат : Matroska
Версия формата : Version 4
Размер файла : 3,14 Гбайт
Продолжительность : 1 ч. 42 м.
Общий поток : 4395 Кбит/сек
Дата кодирования : UTC 2020-04-05 04:31:26
Программа кодирования : mkvmerge v44.0.0 ('Domino') 64-bit
Библиотека кодирования : libebml v1.3.10 + libmatroska v1.5.2

Видео
Идентификатор : 1
Формат : AVC
Формат/Информация : Advanced Video Codec
Профиль формата : [email protected]
Настройки формата : CABAC / 1 Ref Frames
Параметр CABAC формата : Да
Параметр RefFrames формата : 1 кадр
Параметр GOP формата : M=1, N=30
Идентификатор кодека : V_MPEG4/ISO/AVC
Продолжительность : 1 ч. 42 м.
Битрейт : 4009 Кбит/сек
Ширина : 1280 пикселей
Высота : 720 пикселей
Соотношение сторон : 16:9
Режим частоты кадров : Постоянный
Частота кадров : 24,000 кадра/сек
Цветовое пространство : YUV
Субдискретизация насыщенности : 4:2:0
Битовая глубина : 8 бит
Тип развёртки : Прогрессивная
Бит/(Пиксели*Кадры) : 0.181
Размер потока : 2,87 Гбайт (91%)
Заголовок : Canada (Eggplant Picture & Sound, Topsail Entertainment, Trailer Park Productions)
Язык : English
Default : Да
Forced : Нет
Цветовой диапазон : Limited
Основные цвета : BT.709
Характеристики трансфера : BT.709
Коэффициенты матрицы : BT.709

Аудио
Идентификатор : 2
Формат : AC-3
Формат/Информация : Audio Coding 3
Коммерческое название : Dolby Digital
Идентификатор кодека : A_AC3
Продолжительность : 1 ч. 42 м.
Вид битрейта : Постоянный
Битрейт : 384 Кбит/сек
Каналы : 6 каналов
ChannelLayout : L R C LFE Ls Rs
Частота : 48,0 КГц
Частота кадров : 31,250 кадров/сек (1536 SPF)
Метод сжатия : С потерями
Размер потока : 281 Мбайт (9%)
Заголовок : VO (Mikhail Yarotsky aka kyberpunk)
Язык : Russian
ServiceKind/String : Complete Main
Default : Да
Forced : Нет

Текст
Идентификатор : 3
Формат : UTF-8
Идентификатор кодека : S_TEXT/UTF8
Идентификатор кодека/Информация : UTF-8 Plain Text
Продолжительность : 1 ч. 41 м.
Битрейт : 99 бит/сек
ElementCount : 1901
Размер потока : 74,4 Кбайт (0%)
Язык : English
Default : Да
Forced : Нет
Скриншоты



[spoiler=Скриншоты][/spoiler]

Качество: WEB-DL 720p
Видео: MPEG-4 AVC/H.264, 4010 Кбит/сек, 1280x720
Аудио: Pусский: AC3, 6 ch, 384 Кбит/сек
Продолжительность: 01:42:20
Перевод: Авторский (одноголосый закадровый) [Михаил Яроцкий aka kyberpunk]
Субтитры: английские [вшитые отключаемые]

Парни из трейлер парка: Обратный отсчет до дня алкашей (2009) WEB-DL 720p | kyberpunk
3.14 ГБ
Комедии‎ / Криминал‎


Качают: 0 / Раздают: 0
Внимание правообладателям! Мы соблюдаем законы и готовы сотрудничать с Вами. Пишите нам на почту info@torrent-base.org и мы незамедлительно удалим файл, который нарушает Ваши права. В письме должны содержаться копии правоустанавливающих документов! Также мы не храним сами файлы на сервере, у нас только хэш-суммы торрент ссылок, сами файлы мы не знаем кому предналежат и взяли из открытых источников в сети интернет.