Торрент-база » Фильмы » Драмы‎ » Следи за дорогой (2019) BDRip-AVC | iTunes, VPS

Торрент Следи за дорогой (2019) BDRip-AVC | iTunes, VPS

СКАЧАТЬ ТОРРЕНТ (0)
Скачать торрент Следи за дорогой (2019) BDRip-AVC | iTunes, VPS:
Название: Следи за дорогой
Оригинальное название: Adopt a Highway
Год выхода: 2019
Жанр: Драма
Выпущено: США / Divide/Conquer, Blumhouse Productions, Under the Influence
Режиссер: Логан Маршалл-Грин
В ролях: Итан Хоук, Элэйн Хендрикс, Крис Салливан, Кристофер Хейердал, Энн-Мари Джонсон, Бетти Гэбриел, Мо, Крис Уильямс, Нат Муни, Милона Джексон

Описание: Рассел вышел на свободу, отсидев 20 лет в тюрьме. Он пытается приспособиться к жизни, работая в закусочной и проживая в маленькой убогой квартире. Однажды ночью в мусорном баке он находит младенца и решает заботиться о нем.

MediaInfo: Общее
Уникальный идентификатор : 184213139693995055683226508674403533922 (0x8A9629021F2B4986A4EA64BE6B8A0462)
Полное имя : F:РЕЛИЗЫ ФИЛЬМОВ. ФИЛЬМЫAdopt a Highway (2019)Adopt.a.Highway.2019.BDRemux.1080p.NNMClub_encoded (1).mkv
Формат : Matroska
Версия формата : Version 4
Размер файла : 2,02 Гбайт
Продолжительность : 1 ч. 21 м.
Общий поток : 3557 Кбит/сек
Дата кодирования : UTC 2020-04-17 14:55:25
Программа кодирования : mkvmerge v45.0.0 ('Heaven in Pennies') 64-bit
Библиотека кодирования : libebml v1.3.10 + libmatroska v1.5.2 / Lavf57.41.100
Авторское право : «CVATVT»
Обложка : Yes
Attachments : cover.jpg

Видео
Идентификатор : 1
Формат : AVC
Формат/Информация : Advanced Video Codec
Профиль формата : [email protected]
Настройки формата : 10 Ref Frames
Параметр CABAC формата : Нет
Параметр RefFrames формата : 10 кадров
Идентификатор кодека : V_MPEG4/ISO/AVC
Продолжительность : 1 ч. 21 м.
Битрейт : 2500 Кбит/сек
Ширина : 1024 пикселя
Высота : 576 пикселей
Соотношение сторон : 16:9
Режим частоты кадров : Переменный
Частота кадров : 23,976 кадра/сек
Цветовое пространство : YUV
Субдискретизация насыщенности : 4:2:0
Битовая глубина : 8 бит
Тип развёртки : Прогрессивная
Бит/(Пиксели*Кадры) : 0.177
Размер потока : 1,40 Гбайт (69%)
Заголовок : United States (Divide / Conquer, Blumhouse Productions, Under the Influence)
Библиотека кодирования : x264 core 148 r2721M 72d53ab
Настройки программы : cabac=0 / ref=11 / deblock=1:-3:-3 / analyse=0x3:0x133 / me=umh / subme=11 / psy=1 / psy_rd=1.05:0.10 / mixed_ref=1 / me_range=32 / chroma_me=1 / trellis=2 / 8x8dct=1 / cqm=0 / deadzone=21,11 / fast_pskip=0 / chroma_qp_offset=-3 / threads=12 / lookahead_threads=1 / sliced_threads=0 / nr=0 / decimate=1 / interlaced=0 / bluray_compat=0 / constrained_intra=0 / bframes=11 / b_pyramid=1 / b_adapt=1 / b_bias=10 / direct=1 / weightb=1 / open_gop=0 / weightp=1 / keyint=230 / keyint_min=23 / scenecut=40 / intra_refresh=0 / rc=abr / mbtree=0 / bitrate=2500 / ratetol=1.0 / qcomp=0.70 / qpmin=3 / qpmax=69 / qpstep=4 / ip_ratio=1.40 / pb_ratio=1.30 / aq=2:1.00
Язык : English
Default : Да
Forced : Нет
Цветовой диапазон : Limited
Основные цвета : BT.709
Характеристики трансфера : BT.709
Коэффициенты матрицы : BT.709

Аудио #1
Идентификатор : 2
Формат : AC-3
Формат/Информация : Audio Coding 3
Коммерческое название : Dolby Digital
Идентификатор кодека : A_AC3
Продолжительность : 1 ч. 21 м.
Вид битрейта : Постоянный
Битрейт : 384 Кбит/сек
Каналы : 6 каналов
ChannelLayout : L R C LFE Ls Rs
Частота : 48,0 КГц
Частота кадров : 31,250 кадров/сек (1536 SPF)
Метод сжатия : С потерями
Размер потока : 223 Мбайт (11%)
Заголовок : MVO (iTunes)
Язык : Russian
ServiceKind/String : Complete Main
Default : Да
Forced : Нет

Аудио #2
Идентификатор : 3
Формат : AC-3
Формат/Информация : Audio Coding 3
Коммерческое название : Dolby Digital
Идентификатор кодека : A_AC3
Продолжительность : 1 ч. 21 м.
Вид битрейта : Постоянный
Битрейт : 256 Кбит/сек
Каналы : 2 канала
ChannelLayout : L R
Частота : 48,0 КГц
Частота кадров : 31,250 кадров/сек (1536 SPF)
Метод сжатия : С потерями
Размер потока : 149 Мбайт (7%)
Заголовок : DVO (VOICE PROJECT STUDIO)
Язык : Russian
ServiceKind/String : Complete Main
Default : Нет
Forced : Нет

Аудио #3
Идентификатор : 4
Формат : AC-3
Формат/Информация : Audio Coding 3
Коммерческое название : Dolby Digital
Идентификатор кодека : A_AC3
Продолжительность : 1 ч. 21 м.
Вид битрейта : Постоянный
Битрейт : 448 Кбит/сек
Каналы : 6 каналов
ChannelLayout : L R C LFE Ls Rs
Частота : 48,0 КГц
Частота кадров : 31,250 кадров/сек (1536 SPF)
Метод сжатия : С потерями
Размер потока : 260 Мбайт (13%)
Заголовок : Original
Язык : English
ServiceKind/String : Complete Main
Default : Нет
Forced : Нет

Текст #1
Идентификатор : 5
Формат : UTF-8
Идентификатор кодека : S_TEXT/UTF8
Идентификатор кодека/Информация : UTF-8 Plain Text
Продолжительность : 1 ч. 16 м.
Битрейт : 73 бит/сек
ElementCount : 839
Размер потока : 40,8 Кбайт (0%)
Язык : Russian
Default : Да
Forced : Нет

Текст #2
Идентификатор : 6
Формат : UTF-8
Идентификатор кодека : S_TEXT/UTF8
Идентификатор кодека/Информация : UTF-8 Plain Text
Продолжительность : 1 ч. 16 м.
Битрейт : 71 бит/сек
ElementCount : 839
Размер потока : 39,9 Кбайт (0%)
Язык : Ukrainian
Default : Нет
Forced : Нет

Текст #3
Идентификатор : 7
Формат : UTF-8
Идентификатор кодека : S_TEXT/UTF8
Идентификатор кодека/Информация : UTF-8 Plain Text
Продолжительность : 1 ч. 20 м.
Битрейт : 45 бит/сек
ElementCount : 920
Размер потока : 27,1 Кбайт (0%)
Язык : English
Default : Нет
Forced : Нет

Меню
00:00:00.000 : :Chapter 01
00:13:14.293 : :Chapter 02
00:23:04.966 : :Chapter 03
00:34:05.251 : :Chapter 04
00:45:03.158 : :Chapter 05
00:52:46.121 : :Chapter 06
01:01:14.796 : :Chapter 07
01:16:09.648 : :Chapter 08
Скриншоты



[spoiler=Скриншоты][/spoiler]

Качество: BDRip-AVC
Видео: MPEG-4 AVC, 2500 Кбит/сек, 1024x576
Аудио: Русский (iTunes ): AC3, 6 ch, 384 Кбит/сек, Русский (VPS): AC3, 2 ch, 256 Кбит/сек, Английский: AC3, 6 ch, 448 Кбит/сек
Продолжительность: 01:21:07
Перевод: Профессиональный (многоголосый закадровый) [iTunes], Любительский (двухголосый закадровый) [Voice Project Studio]
Субтитры: русские, украинские, английские [вшитые отключаемые]
Дополнительно: Сохранены оригинальные главы (чаптеры)

Следи за дорогой (2019) BDRip-AVC | iTunes, VPS
2.02 ГБ
Драмы‎


Качают: 1 / Раздают: 1
Внимание правообладателям! Мы соблюдаем законы и готовы сотрудничать с Вами. Пишите нам на почту info@torrent-base.org и мы незамедлительно удалим файл, который нарушает Ваши права. В письме должны содержаться копии правоустанавливающих документов! Также мы не храним сами файлы на сервере, у нас только хэш-суммы торрент ссылок, сами файлы мы не знаем кому предналежат и взяли из открытых источников в сети интернет.