Торрент-база » Фильмы » Детективы‎ » Ломка (2012) BDRip-AVC

Торрент Ломка (2012) BDRip-AVC

СКАЧАТЬ ТОРРЕНТ (2)
Скачать торрент Ломка (2012) BDRip-AVC:
Название: Ломка
Оригинальное название: Resolution
Год выхода: 2012
Жанр: Ужасы, триллер, детектив
Выпущено: США / Back Board Cinema
Режиссер: Джастин Бенсон, Аарон Мурхед
В ролях: Питер Силелла, Винни Каррен, Занн МаКларно, Билл Оберст мл., Курт Дэвид Андерсон, Эмили Монтаг, Скайлер Мичам, Кармел Бенсон, Джастин Бенсон, Катрин Барнс...

Описание: Слоган: «Думаете, это наркотики?»
То, что начинается как попытка спасти друга от наркозависимости, принимает неожиданный и жуткий оборот. Послание, принятое за крик наркомана о помощи, его полуразрушенный дом, случайно найденные пугающие пленки и дневники, незнакомцы с неясными намерениями… Наркотики — далеко не самое страшное, с чем придется столкнуться героям.

MediaInfo: Общее
Уникальный идентификатор : 205922366582809161775568734262548088882 (0x9AEB34881FD132DECAA97C41E621C832)
Полное имя : F:РЕЛИЗЫ ФИЛЬМОВ. ФИЛЬМЫЛомка Resolution (2012)Resolution (2012) .mkv
Формат : Matroska
Версия формата : Version 4
Размер файла : 2,23 Гбайт
Продолжительность : 1 ч. 32 м.
Общий поток : 3 446 Кбит/сек
Программа кодирования : XviD4PSP 7.0.324 DAILY
Библиотека кодирования : Lavf57.41.100
Обложка : Yes
Attachments : cover.jpg

Видео
Идентификатор : 1
Формат : AVC
Формат/Информация : Advanced Video Codec
Профиль формата : [email protected]
Настройки формата : 10 Ref Frames
Параметр CABAC формата : Нет
Параметр RefFrames формата : 10 кадров
Идентификатор кодека : V_MPEG4/ISO/AVC
Продолжительность : 1 ч. 32 м.
Битрейт : 2 500 Кбит/сек
Ширина : 1 024 пикселя
Высота : 424 пикселя
Соотношение сторон : 2,40:1
Соотношение сторон в оригинале : 2,40:1
Режим частоты кадров : Переменный
Частота кадров в оригинале : 23,976 кадра/сек
Цветовое пространство : YUV
Субдискретизация насыщенности : 4:2:0
Битовая глубина : 8 бит
Тип развёртки : Прогрессивная
Бит/(Пиксели*Кадры) : 0.240
Размер потока : 1,57 Гбайт (70%)
Заголовок : USA (Back Board Cinema)
Библиотека кодирования : x264 core 148 r2721M 72d53ab
Настройки программы : cabac=0 / ref=11 / deblock=1:-3:-3 / analyse=0x3:0x133 / me=umh / subme=11 / psy=1 / psy_rd=1.05:0.10 / mixed_ref=1 / me_range=32 / chroma_me=1 / trellis=2 / 8x8dct=1 / cqm=0 / deadzone=21,11 / fast_pskip=0 / chroma_qp_offset=-3 / threads=13 / lookahead_threads=1 / sliced_threads=0 / nr=0 / decimate=1 / interlaced=0 / bluray_compat=0 / constrained_intra=0 / bframes=11 / b_pyramid=1 / b_adapt=1 / b_bias=11 / direct=1 / weightb=1 / open_gop=0 / weightp=1 / keyint=230 / keyint_min=23 / scenecut=40 / intra_refresh=0 / rc=abr / mbtree=0 / bitrate=2500 / ratetol=1.0 / qcomp=0.70 / qpmin=3 / qpmax=69 / qpstep=4 / ip_ratio=1.40 / pb_ratio=1.30 / aq=2:1.00
Язык : English
Default : Да
Forced : Нет
Цветовой диапазон : Limited
Основные цвета : BT.709
Характеристики трансфера : BT.709
Коэффициенты матрицы : BT.709

Аудио #1
Идентификатор : 2
Формат : AC-3
Формат/Информация : Audio Coding 3
Коммерческое название : Dolby Digital
Идентификатор кодека : A_AC3
Продолжительность : 1 ч. 32 м.
Вид битрейта : Постоянный
Битрейт : 256 Кбит/сек
Каналы : 2 канала
Channel layout : L R
Частота : 48,0 КГц
Частота кадров : 31,250 кадров/сек (1536 SPF)
Битовая глубина : 32 бит
Метод сжатия : С потерями
Размер потока : 170 Мбайт (7%)
Заголовок : Dub (Back Board Cinema)
Язык : Russian
Service kind : Complete Main
Default : Да
Forced : Нет

Аудио #2
Идентификатор : 3
Формат : AC-3
Формат/Информация : Audio Coding 3
Коммерческое название : Dolby Digital
Идентификатор кодека : A_AC3
Продолжительность : 1 ч. 32 м.
Вид битрейта : Постоянный
Битрейт : 256 Кбит/сек
Каналы : 2 канала
Channel layout : L R
Частота : 48,0 КГц
Частота кадров : 31,250 кадров/сек (1536 SPF)
Битовая глубина : 32 бит
Метод сжатия : С потерями
Размер потока : 170 Мбайт (7%)
Заголовок : VO (den904)
Язык : Russian
Service kind : Complete Main
Default : Нет
Forced : Нет

Аудио #3
Идентификатор : 4
Формат : AC-3
Формат/Информация : Audio Coding 3
Коммерческое название : Dolby Digital
Идентификатор кодека : A_AC3
Продолжительность : 1 ч. 32 м.
Вид битрейта : Постоянный
Битрейт : 448 Кбит/сек
Каналы : 6 каналов
Channel layout : L R C LFE Ls Rs
Частота : 48,0 КГц
Частота кадров : 31,250 кадров/сек (1536 SPF)
Битовая глубина : 32 бит
Метод сжатия : С потерями
Размер потока : 297 Мбайт (13%)
Заголовок : Original
Язык : English
Service kind : Complete Main
Default : Нет
Forced : Нет

Текст
Идентификатор : 5
Формат : UTF-8
Идентификатор кодека : S_TEXT/UTF8
Идентификатор кодека/Информация : UTF-8 Plain Text
Продолжительность : 1 ч. 30 м.
Заголовок : English
Язык : English
Default : Да
Forced : Нет
Скриншоты



[spoiler=Скриншоты][/spoiler]

Качество: BDRip-AVC
Видео: MPEG-4 AVC, 2 500 Кбит/сек, 1024x424
Аудио: Русский (Back Board Cinema), Русский (Den904): AC3, 2 ch, 256 Кбит/сек, Английский: AC3, 6 ch, 448 Кбит/сек
Продолжительность: 01:32:42
Перевод: Дублирование [Back Board Cinema], Любительский (одноголосый закадровый) [Den904]

Ломка (2012) BDRip-AVC
2.23 ГБ
Детективы‎ / Триллеры‎ / Ужасы‎


Качают: 0 / Раздают: 1
Трейлер
Комментарии
Комментировать
Введите код с картинки:*
Кликните на изображение чтобы обновить код, если он неразборчив
Внимание правообладателям! Мы соблюдаем законы и готовы сотрудничать с Вами. Пишите нам на почту info@torrent-base.org и мы незамедлительно удалим файл, который нарушает Ваши права. В письме должны содержаться копии правоустанавливающих документов! Также мы не храним сами файлы на сервере, у нас только хэш-суммы торрент ссылок, сами файлы мы не знаем кому предналежат и взяли из открытых источников в сети интернет.