Торрент-база » Фильмы » Боевики‎ » Годжира / Годзилла: Возрождение (2016) BDRip-AVC | Чадов, КОЛОБОК

Торрент Годжира / Годзилла: Возрождение (2016) BDRip-AVC | Чадов, КОЛОБОК

СКАЧАТЬ ТОРРЕНТ (0)
Скачать торрент Годжира / Годзилла: Возрождение (2016) BDRip-AVC | Чадов, КОЛОБОК:
Название: Годжира / Годзилла: Возрождение
Оригинальное название: Shin Gojira
Год выхода: 2016
Жанр: Ужасы, фантастика, боевик, драма, приключения
Выпущено: Япония / Cine Bazar, Khara Corporation, Toho Company
Япония / Cine Bazar, Khara Corporation, Toho Company

Описание: Слоган: «Истинный бог. Город, обреченный»
Загадочная авария в туннелях под мостом-шоссе Токио Бэй Аква Лайн ставит на уши все аварийные подразделения мегаполиса. Шеф МЧС Японии созывает всех, чтобы найти причину аварии, и возможные решения сложившейся проблемы. Они еще не знают, что это только начало. Огромное существо, известное как Годзилла, встало на путь разрушения…

P.S: Годзилла – это американский термин. Японцы произносят его, как Годжира.

MediaInfo: Общее
Уникальный идентификатор : 64144182223830667986404462251025181377 (0x3041B85A75C547E7D37CA06B95712AC1)
Полное имя : F:РЕЛИЗЫ ФИЛЬМОВ. ФИЛЬМЫГодзилла Возрождение Shin Gojira 2016Shin Gojira (2016).mkv
Формат : Matroska
Версия формата : Version 4
Размер файла : 3,05 Гбайт
Продолжительность : 1 ч. 59 м.
Общий поток : 3 641 Кбит/сек
Дата кодирования : UTC 2020-04-12 11:30:28
Программа кодирования : mkvmerge v45.0.0 ('Heaven in Pennies') 64-bit
Библиотека кодирования : libebml v1.3.10 + libmatroska v1.5.2 / Lavf57.41.100
Обложка : Yes
Attachments : cover.jpg

Видео
Идентификатор : 1
Формат : AVC
Формат/Информация : Advanced Video Codec
Профиль формата : [email protected]
Настройки формата : 10 Ref Frames
Параметр CABAC формата : Нет
Параметр RefFrames формата : 10 кадров
Идентификатор кодека : V_MPEG4/ISO/AVC
Продолжительность : 1 ч. 59 м.
Битрейт : 2 500 Кбит/сек
Ширина : 1 024 пикселя
Высота : 424 пикселя
Соотношение сторон : 2,40:1
Соотношение сторон в оригинале : 2,40:1
Режим частоты кадров : Переменный
Частота кадров : 23,976 кадра/сек
Цветовое пространство : YUV
Субдискретизация насыщенности : 4:2:0
Битовая глубина : 8 бит
Тип развёртки : Прогрессивная
Бит/(Пиксели*Кадры) : 0.240
Размер потока : 2,08 Гбайт (68%)
Заголовок : Japan (Cine Bazar, Khara Corporation, Toho Company)
Библиотека кодирования : x264 core 148 r2721M 72d53ab
Настройки программы : cabac=0 / ref=11 / deblock=1:-3:-3 / analyse=0x3:0x133 / me=umh / subme=11 / psy=1 / psy_rd=1.05:0.10 / mixed_ref=1 / me_range=32 / chroma_me=1 / trellis=2 / 8x8dct=1 / cqm=0 / deadzone=21,11 / fast_pskip=0 / chroma_qp_offset=-3 / threads=12 / lookahead_threads=1 / sliced_threads=0 / nr=0 / decimate=1 / interlaced=0 / bluray_compat=0 / constrained_intra=0 / bframes=11 / b_pyramid=1 / b_adapt=1 / b_bias=10 / direct=1 / weightb=1 / open_gop=0 / weightp=1 / keyint=230 / keyint_min=23 / scenecut=40 / intra_refresh=0 / rc=abr / mbtree=0 / bitrate=2500 / ratetol=1.0 / qcomp=0.70 / qpmin=3 / qpmax=69 / qpstep=4 / ip_ratio=1.40 / pb_ratio=1.30 / aq=2:1.00
Язык : Japanese
Default : Да
Forced : Нет
Цветовой диапазон : Limited
Основные цвета : BT.709
Характеристики трансфера : BT.709
Коэффициенты матрицы : BT.709

Аудио #1
Идентификатор : 2
Формат : AC-3
Формат/Информация : Audio Coding 3
Коммерческое название : Dolby Digital
Идентификатор кодека : A_AC3
Продолжительность : 1 ч. 59 м.
Вид битрейта : Постоянный
Битрейт : 448 Кбит/сек
Каналы : 6 каналов
Channel layout : L R C LFE Ls Rs
Частота : 48,0 КГц
Частота кадров : 31,250 кадров/сек (1536 SPF)
Метод сжатия : С потерями
Размер потока : 384 Мбайт (12%)
Заголовок : AVO (Mikhail Chadov)
Язык : Russian
Service kind : Complete Main
Default : Да
Forced : Нет

Аудио #2
Идентификатор : 3
Формат : AC-3
Формат/Информация : Audio Coding 3
Коммерческое название : Dolby Digital
Идентификатор кодека : A_AC3
Продолжительность : 1 ч. 59 м.
Вид битрейта : Постоянный
Битрейт : 256 Кбит/сек
Каналы : 2 канала
Channel layout : L R
Частота : 48,0 КГц
Частота кадров : 31,250 кадров/сек (1536 SPF)
Метод сжатия : С потерями
Размер потока : 219 Мбайт (7%)
Заголовок : MVO (KOLOBOK)
Язык : Russian
Service kind : Complete Main
Default : Нет
Forced : Нет

Аудио #3
Идентификатор : 4
Формат : AC-3
Формат/Информация : Audio Coding 3
Коммерческое название : Dolby Digital
Идентификатор кодека : A_AC3
Продолжительность : 1 ч. 59 м.
Вид битрейта : Постоянный
Битрейт : 448 Кбит/сек
Каналы : 4 канала
Channel layout : L R Ls Rs
Частота : 48,0 КГц
Частота кадров : 31,250 кадров/сек (1536 SPF)
Метод сжатия : С потерями
Размер потока : 384 Мбайт (12%)
Заголовок : Original
Язык : Japanese
Service kind : Complete Main
Default : Нет
Forced : Нет

Текст #1
Идентификатор : 5
Формат : ASS
Идентификатор кодека : S_TEXT/ASS
Идентификатор кодека/Информация : Advanced Sub Station Alpha
Продолжительность : 1 ч. 52 м.
Битрейт : 195 бит/сек
Count of elements : 1762
Метод сжатия : Без потерь
Размер потока : 162 Кбайт (0%)
Заголовок : full
Язык : Russian
Default : Да
Forced : Нет

Текст #2
Идентификатор : 6
Формат : UTF-8
Идентификатор кодека : S_TEXT/UTF8
Идентификатор кодека/Информация : UTF-8 Plain Text
Продолжительность : 1 ч. 49 м.
Битрейт : 23 бит/сек
Count of elements : 287
Размер потока : 18,5 Кбайт (0%)
Заголовок : Forced
Язык : Russian
Default : Нет
Forced : Нет

Текст #3
Идентификатор : 7
Формат : UTF-8
Идентификатор кодека : S_TEXT/UTF8
Идентификатор кодека/Информация : UTF-8 Plain Text
Продолжительность : 1 ч. 59 м.
Битрейт : 11 бит/сек
Count of elements : 267
Размер потока : 9,79 Кбайт (0%)
Заголовок : Forced
Язык : English
Default : Нет
Forced : Нет

Текст #4
Идентификатор : 8
Формат : UTF-8
Идентификатор кодека : S_TEXT/UTF8
Идентификатор кодека/Информация : UTF-8 Plain Text
Продолжительность : 1 ч. 59 м.
Битрейт : 69 бит/сек
Count of elements : 1730
Размер потока : 60,8 Кбайт (0%)
Заголовок : full
Язык : English
Default : Нет
Forced : Нет
Скриншоты



[spoiler=Скриншоты][/spoiler]

Качество: BDRip-AVC
Видео: MPEG-4 AVC, 2 500 Кбит/сек, 1024x432
Аудио: Русский (Чадов): AC3, 4 ch, 448 Кбит/сек, Русский (КОЛОБОК): AC3, 2 ch, 256 Кбит/сек, Японский: AC3, 4 ch, 448 Кбит/сек
Продолжительность: 01:59:50
Перевод: Авторский (одноголосый закадровый) [Михаил Чадов], Любительский (многоголосый закадровый) [КОЛОБОК]
Субтитры: русские, английские [вшитые отключаемые]

P.S: Годзилла – это американский термин. Японцы произносят его, как Годжира.
Годжира / Годзилла: Возрождение (2016) BDRip-AVC | Чадов, КОЛОБОК
3.05 ГБ
Боевики‎ / Драмы‎ / Приключения / Фантастика‎ / Ужасы‎


Качают: 0 / Раздают: 0
Внимание правообладателям! Мы соблюдаем законы и готовы сотрудничать с Вами. Пишите нам на почту info@torrent-base.org и мы незамедлительно удалим файл, который нарушает Ваши права. В письме должны содержаться копии правоустанавливающих документов! Также мы не храним сами файлы на сервере, у нас только хэш-суммы торрент ссылок, сами файлы мы не знаем кому предналежат и взяли из открытых источников в сети интернет.